<?xml version="1.0" standalone="no"?>
<!DOCTYPE svg PUBLIC "-//W3C//DTD SVG 1.1//EN" "http://www.w3.org/Graphics/SVG/1.1/DTD/svg11.dtd">
<svg xmlns="http://www.w3.org/2000/svg">
<metadata>Copyright (C) 2024 by original authors @ fontello.com</metadata>
<defs>
<font id="tapdo-icons" horiz-adv-x="1000" >
<font-face font-family="tapdo-icons" font-weight="400" font-stretch="normal" units-per-em="1000" ascent="850" descent="-150" />
<missing-glyph horiz-adv-x="1000" />
<glyph glyph-name="app-developement" unicode="&#xe800;" d="M156 68v-31s-31 0-31 0v31h-31s0 32 0 32h31v31s31 0 31 0v-31s32 0 32 0v-32h-32z m688-125v32s-31 0-31 0v31s-32 0-32 0v-31s-31 0-31 0v-32h31s0-31 0-31h32v31s31 0 31 0z m-615 832l-22 23-22-23 22-22 22 22z m-132-132l-23 22-22-22 22-22 23 22z m88 88l-22 22-23-22-22 22-22-22 22-22-22-22 22-22 22 22 23-22 22 22-22 22 22 22z m44-88l-22 22-22-22 22-22 22 22z m-132 132l-23 23-22-23 22-22 23 22z m882-375l-22 23-22-23 22-22 22 22z m-132-132l-23 22-22-22 22-22 23 22z m88 88l-22 22-23-22-22 22-22-22 22-22-22-22 22-22 22 22 23-22 22 22-22 22 22 22z m44-88l-22 22-22-22 22-22 22 22z m-132 132l-23 23-22-23 22-22 23 22z m-34 325h-32v-32h32v32z m-32-157v-468c0-35-28-63-62-63h-438c-34 0-62 28-62 63v468c0 35 28 63 62 63h438c34 0 62-28 62-63z m-531-31h500v31c0 18-14 32-31 32v-32h-31v32h-32v-32h-31v32h-344c-17 0-31-14-31-32v-31z m500-31h-500v-406c0-17 14-32 31-32h438c17 0 31 15 31 32v406z m156 281h-31v-31h31v31z m32-687h-32v-32h32v32z m-719-157h-31v-31h31v31z m187 32h-31v-32h31v32z m250 843h-31v-31h31v31z m-531-406h-31v-31h31v31z m563 31h-375v-31h375v31z m-157-62h-218v-31h218v31z m0-63h-218v-31h218v31z m52-125h-165c-6 0-11-5-11-10v-10c0-5 5-10 11-10h165c6 0 11 5 11 10v10c0 5-5 10-11 10m0 32c23 0 42-19 42-42v-10c0-23-19-42-42-42h-165c-24 0-43 19-43 42v10c0 23 19 42 43 42h165z" horiz-adv-x="1000" />

<glyph glyph-name="application" unicode="&#xe801;" d="M719 631h-438c-34 0-62-28-62-62v-469c0-34 28-62 62-62h438c34 0 62 28 62 62v469c0 34-28 62-62 62z m-469-62c0 17 14 31 31 31h344v-31h31v31h32v-31h31v31c17 0 31-14 31-31v-31h-500v31z m500-469c0-17-14-31-31-31h-438c-17 0-31 14-31 31v406h500v-406z m-62 313h-375v31h375v-31z m-157-63h-218v31h218v-31z m0-62h-218v31h218v-31z m52-94c6 0 11-5 11-11v-9c0-6-5-11-11-11h-165c-6 0-11 5-11 11v9c0 6 5 11 11 11h165m0 31h-165c-24 0-43-19-43-42v-9c0-24 19-42 43-42h165c23 0 42 19 42 42v9c0 23-19 42-42 42h0z" horiz-adv-x="1000" />

<glyph glyph-name="availability-key" unicode="&#xe802;" d="M683 698l-22 23 62 62 22-22-62-63z m-313 22l-62 63-22-22 62-63 22 22z m-26-89h-94v-31h94v31z m437 0h-93v-31h93v31z m-218-375h-94v-31h94v31z m250 219v-424c0-42-35-76-77-76h-18l1-63h-406v63h-18c-42 0-76 34-76 76v424h31v30c0 35 29 64 64 64h30v-328c0 8 7 15 15 15h16v47c0 26 21 47 47 47h187c26 0 47-21 47-47v-47h16c9 0 16-7 16-15v328h29c36 0 64-29 64-64v-30h32z m-532 0h32v63c-18-1-32-16-32-33v-30z m141-375c-26 0-47 21-47 47v16h-16c-8 0-15 6-15 15v-78h78z m0 31h187c9 0 16 7 16 16v156c0 9-7 16-16 16h-15v-31h-31v31h-94v-31h-31v31h-16c-9 0-16-7-16-16v-156c0-9 7-16 16-16z m172-31h-156v-16c0-8 6-15 15-15h125c9 0 16 7 16 15v16z m94 78c0-9-7-15-16-15h-16v-16c0-26-21-47-47-47h79v78z m62 327c0 17-14 32-31 33v-63h31v30z m-125 207v-99c0-25-20-44-44-44h-18v-141c0-26-21-47-47-47h-78v32h31v31h-31v31h31v94h-18c-25 0-45 19-45 44v99c0 25 20 44 45 44h130c24 0 44-19 44-44z m-94-143h-31v-156h16c8 0 15 6 15 15v141z m63 143c0 7-6 13-13 13h-130c-8 0-13-6-13-13v-99c0-7 5-13 13-13h130c7 0 13 6 13 13v99z m-47-18c-9 0-16-7-16-16s7-15 16-15 16 6 16 15-7 16-16 16z" horiz-adv-x="1000" />

<glyph glyph-name="availability" unicode="&#xe803;" d="M833 177c5 10 10 20 14 30 2 6 4 11 6 16 2 8 5 16 7 25 2 5 3 11 5 16 2 9 3 19 5 28 1 5 2 9 2 14 2 15 3 29 3 44 0 12-1 25-2 37 0 3-1 6-1 9-1 9-3 19-4 28-1 3-2 5-2 8-3 9-5 19-8 28 0 2-1 3-1 5-3 8-5 15-8 22 0 1-1 2-1 3-11 28-26 54-44 78h1c-2 2-3 4-4 6-11 14-23 28-36 40 0 0 0 0 0 1-17 17-37 33-57 47h-1c-59 39-130 62-207 62-55 0-107-12-154-33h0c-5-2-9-4-14-7-5-2-10-5-15-8-7-3-14-8-20-12-4-2-8-5-12-8-7-5-13-9-20-14-3-3-6-6-10-9-6-5-12-11-19-17-2-3-4-5-7-8-20-20-37-44-52-69-3-4-5-8-8-12-3-6-6-12-9-19-2-5-5-12-8-18-2-6-4-11-6-17-3-7-5-15-7-22-1-3-2-5-3-8h1c-8-30-13-61-13-94 0-3 1-7 1-11 0-1 0-2 0-3 0-5 1-11 1-17h0c10-112 68-210 155-273v0c2-2 5-3 8-5 1-1 3-2 4-3 9-6 18-12 27-17 2-1 3-1 4-2 7-4 14-7 21-11h0c48-21 99-33 154-33 142 0 265 79 329 194 0 1 0 1 1 2 1 2 2 4 3 6z m8 133c0-3-1-7-1-11-2-9-3-19-6-28-1-4-1-8-3-12-2-9-5-19-9-28-1-3-2-6-3-9-5-12-11-24-17-36l-21 21v81c0 34-28 62-62 62h-112l-13 13v68l75 44h31l9 9 23 22h18v-31h31l39 1c2-6 4-12 6-18 1-3 2-5 3-8 2-7 4-15 6-23 0-4 1-7 2-10 1-8 2-16 4-24 0-3 1-6 1-9 1-11 1-23 1-34 0-14 0-27-2-40z m-137 316c9-7 18-13 26-21 2-2 4-3 6-5h-30l-9-9-22-22h-50v62h72c3-1 5-3 7-5z m-523-147c2 5 5 10 7 16 2 4 4 8 6 12 4 6 7 11 10 17 2 3 4 6 6 9 3 6 7 12 11 18 2 2 4 5 7 8 4 5 8 11 13 16 2 3 5 5 7 8 5 5 10 10 14 15 3 2 6 5 9 8 5 4 9 8 14 12 4 4 9 7 13 10 4 3 8 6 12 9 6 4 13 7 18 11 3 1 6 3 9 5 1 0 1 0 2 1l36-36v-5l-13-13h-36c-17 0-33-7-44-18l-60-60c-12-12-19-28-19-44v-3h-23s1 3 2 4z m132-417v56c0 17-7 33-19 45l-44 44v62l-9 9-63 63-9 9h-11c1 11 2 21 4 31h13l85-84 9-9h94l106-107v-37l-129-98c-10 5-18 11-27 16z m-155 255l61-61v-49c0-9 3-17 9-23l44-44c6-6 9-14 9-22v-34c-68 57-114 139-123 233z m342-311c-46 0-90 10-130 26l121 90c6 6 9 14 9 22v37c0 8-3 16-9 22l-107 107c-6 6-13 9-22 9h-81l-93 94h-26c2 10 5 20 7 31h34c17 0 31 14 31 31v3c0 8 4 16 9 22l60 60c6 6 14 9 22 9h37c8 0 16 3 22 9l22 22v31l-36 37c40 16 84 26 130 26 51 0 99-11 143-31h-49v-94c0-17 14-31 31-31h63l31 31h46c16-19 30-41 41-63h-25v32h-62l-31-32h-32l-84-53c-6-6-9-14-9-22v-68c0-9 3-16 9-22l12-13c6-6 14-9 23-9h112c17 0 31-14 31-31v-81c0-9 3-17 9-23l21-20c2-2 4-3 6-4-62-93-167-154-286-154z m-203 282c9 0 16-7 16-16s-7-16-16-16-16 7-16 16 7 16 16 16z m94-94c8 0 15-7 15-16s-7-15-15-15-16 6-16 15 7 16 16 16z m0 62c8 0 15-7 15-15s-7-16-15-16-16 7-16 16 7 15 16 15z m-63-125c9 0 16-7 16-15s-7-16-16-16-15 7-15 16 6 15 15 15z m0 500c9 0 16-7 16-15s-7-16-16-16-15 7-15 16 6 15 15 15z m406-218c9 0 16-7 16-16s-7-16-16-16-15 7-15 16 7 16 15 16z m63 62c9 0 16-7 16-16s-7-15-16-15-16 7-16 15 7 16 16 16z m-125-94c9 0 16-7 16-15s-7-16-16-16-16 7-16 16 7 15 16 15z m-31 63c8 0 15-7 15-16s-7-15-15-15-16 6-16 15 7 16 16 16z m156-63c9 0 16-7 16-15s-7-16-16-16-16 7-16 16 7 15 16 15z m-156 219c8 0 15-7 15-16s-7-15-15-15-16 7-16 15 7 16 16 16z m156-312c9 0 16-7 16-16s-7-16-16-16-16 7-16 16 7 16 16 16z m-469 218c9 0 16-7 16-15s-7-16-16-16-15 7-15 16 6 15 15 15z m94 32c9 0 16-7 16-16s-7-16-16-16-16 7-16 16 7 16 16 16z m187-469c9 0 16-7 16-16s-7-15-16-15-15 6-15 15 7 16 15 16z m94 219c9 0 16-7 16-16s-7-16-16-16-15 7-15 16 6 16 15 16z m-406 156c9 0 16-7 16-16s-7-15-16-15-16 6-16 15 7 16 16 16z m312-188c9 0 16-7 16-15s-7-16-16-16-15 7-15 16 7 15 15 15z m-62 407c9 0 16-7 16-16s-7-16-16-16-16 7-16 16 7 16 16 16z m31-125c9 0 16-7 16-16s-7-16-16-16-15 7-15 16 6 16 15 16z m-94-438c9 0 16-7 16-16s-7-15-16-15-15 7-15 15 7 16 15 16z m-163 391" horiz-adv-x="1000" />

<glyph glyph-name="barcode-scanner" unicode="&#xe804;" d="M594 631h-313v-250h250v-93h32v-125c-35 0-63-29-63-63v-62h219v343c17 0 31 14 31 32v62c0 86-70 156-156 156z m-281-93h218v-63h-218v63z m375-469h-157v31c0 17 14 31 32 31h125v-62z m0 94h-94v218h94v-218z m31 250h-406v31h218c17 0 32 14 32 31v63c0 17-15 31-32 31h-218v31h281c69 0 125-56 125-125v-62z" horiz-adv-x="1000" />

<glyph glyph-name="barcode" unicode="&#xe805;" d="M219 69h-63v531h63v-531z m62 531h-31v-481h31v481z m63 0h-31v-481h31v481z m94 0h-63v-481h63v481z m93 0h-31v-531h31v531z m94 0h-62v-481h62v481z m94 0h-63v-481h63v481z m62 0h-31v-481h31v481z m63 0h-31v-531h31v531z" horiz-adv-x="1000" />

<glyph glyph-name="ble" unicode="&#xe806;" d="M500-16v313l-177-177-22 22 192 192-192 193 22 22 177-177v313l194-194-156-157 156-156-194-194z m31 313v-238l119 119-119 118z m0 312v-237l119 118-119 119z" horiz-adv-x="1000" />

<glyph glyph-name="box" unicode="&#xe807;" d="M982 319l-54 53-131 131v3h-63v126h-469v-125h0s-59 0-59 0h-3v-3l-131-131-54-54h185v-250h594v250h185z m-185 140l110-109h-157l-125 125h157l15-16z m-94 141v-94h-125v94h125z m-406 0h250v-94h-250v94z m-203-250l109 109 16 16h344l-125-125h-344z m141-250v219h216l9 9 118 119v-347h-343z m531 0h-156v347l118-119 9-9h29v-219z" horiz-adv-x="1000" />

<glyph glyph-name="board" unicode="&#xe808;" d="M734 256h0c-26 0-46 21-46 47h0c0 26 20 47 46 47h0c26 0 47-21 47-47h0c0-26-21-47-47-47z m-421-93h-94v-94h94v94z m531 531v-688h-688v688h688z m-563-31v-338l125-125v-162h32v180l-125 125v320h-32z m-93-625h187v149l-125 125v351h-62v-625z m625 125h-165l-85-100v-25s250 0 250 0v125z m0 281h-101l-87 87v132h-94v-128c18-7 32-24 32-44 0-26-21-47-47-47s-47 21-47 47c0 20 13 37 31 44v128h-94v-275l69-69h56v31h94v-94h-94v32h-69l-87 87v288h-31v-306l125-125v-194h62l0 37 102 119h180v250z m0 31v188h-157v-119l69-69h88z" horiz-adv-x="1000" />

<glyph glyph-name="brain" unicode="&#xe809;" d="M375 475h31v-31h-31v31z m125-94v94h-31v-125h62v31h-31z m94 63h31v31h-31v-31z m-31-94v-31h-125v-31h156v62h-31z m281-250v-125h-688v125c0 52 42 94 94 94h74c-26 23-43 56-43 94v34c-18 6-31 23-31 44v62c0 20 13 38 31 44v66h32v46c0 43 35 79 78 79h49c13 0 25-5 33-14l18-18h18l18 18c9 8 21 14 33 14h49c44 0 79-36 79-79v-46h31v-66c18-6 31-24 31-44v-62c0-21-13-38-31-44v-34c0-38-17-71-43-94h74c52 0 94-42 94-94z m-500 438h94v31h31v-31h187v31h-31v31h28c-6 18-23 31-44 31h-15v-62h-31v62h-3c-4 0-8-2-11-4l-27-27h-44l-27 27c-3 2-7 4-11 4h-49c-20 0-38-13-44-31h59v-31h-62v-31z m250-375h-188c0-35 28-63 63-63h62c35 0 63 28 63 63z m94 125v218h-375v-218c0-52 41-94 93-94h188c52 0 94 42 94 94z m89 473l-22 22-94-94 22-22 94 94z m-438-72l-93 94-23-22 94-94 22 22z m-58-58h-125v-31h125v31z m563 0h-125v-31h125v31z" horiz-adv-x="1000" />

<glyph glyph-name="camera" unicode="&#xe80a;" d="M500 444c69 0 125-56 125-125s-56-125-125-125-125 56-125 125 56 125 125 125m0 31c-86 0-156-70-156-156s70-156 156-156 156 70 156 156-70 156-156 156h0z m219 0c-17 0-31-14-31-31s14-31 31-31 31 14 31 31-14 31-31 31z m-125 63h-188v-32h188v32z m187 0h-125c0 34-28 62-62 62h-188c-34 0-62-28-62-62h-31v31h-63v-31h-31c-35 0-63-29-63-63v-312c0-35 28-63 63-63h562c35 0 63 28 63 63v312c0 34-28 63-63 63z m32-375c0-18-15-32-32-32h-562c-17 0-31 14-31 32v312c0 17 14 31 31 31h156v32c0 17 14 31 31 31h188c17 0 31-14 31-31v-32h156c17 0 32-14 32-31v-312z" horiz-adv-x="1000" />

<glyph glyph-name="check-list" unicode="&#xe80b;" d="M813 600v-62h-250v62h250m31 31h-313v-125h313v125h0z m-31-281v-62h-250v62h250m31 31h-313v-125h313v125h0z m-31-281v-62h-250v62h250m31 31h-313v-125h313v125h0z m-536 401l132 132-44 44-132-132-66 66-45-44 111-110 44 44z m-44-206l-66 66-45-44 111-110 44 44 133 132-44 44-133-132z m0-250l-66 66-45-44 111-111 44 45 133 132-44 44-133-132z" horiz-adv-x="1000" />

<glyph glyph-name="cloud-developement" unicode="&#xe80c;" d="M469 256v-31h-94v31h94z m94 78c0 26-21 47-47 47s-47-21-47-47 21-46 47-46 47 20 47 46z m-32 0c0-8-7-15-15-15s-16 7-16 15 7 16 16 16 15-7 15-16z m309 110c-2-9-6-17-10-25 10-11 19-23 25-36 1-1 1-1 1-2 12-23 19-50 19-78 0-78-53-145-125-165v-116l-3-16c-4-13-15-24-28-28l-16-3h-187c-15-19-37-31-63-31-20 0-39 8-53 21l22 22c8-7 19-12 31-12s23 5 31 12c-9 9-15 21-15 35s6 26 15 35c-8 7-19 12-31 12s-23-5-31-12l-22 22c14 13 33 21 53 21 26 0 48-12 63-31h140v62h-359c-95 0-172 77-172 172 0 80 54 148 130 167 18 71 78 123 151 129v35c-18 6-31 24-31 44 0 26 21 47 47 47s47-21 47-47c0-20-13-38-31-44v-35c46-4 89-27 118-63 18 3 36 2 52-2 1 1 2 3 3 4l-30 31 44 44 30-30c10 5 21 10 33 13v35h62v-35c12-3 22-8 32-13l31 30 44-44-31-31c6-10 11-20 14-32h35v-62h-35z m-202 79c10-4 19-9 27-16 11 18 31 31 54 31 34 0 62-29 62-63 0-6-1-12-2-18 9-4 19-10 27-16 4 10 7 22 7 34 0 52-43 94-94 94-34 0-64-19-81-46z m81-17c-15 0-27-9-30-23 2-3 4-5 6-8 3 0 5 0 8 0 16 0 32-2 46-7 1 3 1 5 1 7 0 17-14 31-31 31z m-313 172c0-9 7-15 16-15s16 6 16 15-7 16-16 16-16-7-16-16z m250-672v32h-118v-32h118z m63 16c0 9-7 16-16 16s-15-7-15-16 6-16 15-16 16 7 16 16z m0 198h-31v-151h31v151z m31 83c0 26-21 47-47 47s-47-21-47-47 21-47 47-47 47 21 47 47z m62 89c-5 6-10 12-16 16-2 3-4 4-6 6-9 6-18 12-27 17-19 8-39 13-60 13-5 0-10-1-14-1l-11-1-5 9c-4 8-10 15-17 22-8 9-18 16-29 21-1 1-1 1-2 1-9 5-18 8-27 9-14 3-30 3-45-1l-10-2-6 8c-27 38-70 60-115 60-68 0-126-49-138-115l-2-11-11-2c-66-12-115-70-115-138 0-77 63-140 141-140h359v78c-19 14-31 37-31 62 0 43 35 78 78 78s78-35 78-78c0-25-12-48-31-62v-70c55 19 94 71 94 132 0 20-4 38-11 55-5 12-12 24-21 34z m-437-11h-94v-93h94v93z m-62-31h31v-31h-31v31z" horiz-adv-x="1000" />

<glyph glyph-name="cloud" unicode="&#xe80d;" d="M719 131h-63v157h32c69 0 125 55 125 125s-56 125-125 125h-18c-22 38-63 62-107 62-16 0-30-3-45-8-20 42-63 71-112 71-69 0-125-56-125-125 0-2 0-3 0-5-53-13-93-62-93-120 0-70 55-125 125-125h62v-157h-62v32h-94v-94h94v31h93v188h94v-157h-31v-93h94v93h-32v157h94v-188h94v-31h94v94h-94v-32z m-406 188c-52 0-94 42-94 94s42 93 94 93h5c-3 10-5 21-5 32 0 51 41 93 93 93s90-38 93-87c17 15 39 25 64 25 40 0 75-26 88-63h37c51 0 93-42 93-93s-42-94-93-94h-375z" horiz-adv-x="1000" />

<glyph glyph-name="coding_big" unicode="&#xe80e;" d="M813 694h-219c-35 0-63-28-63-63v-230c0-28 23-51 52-51h241c28 0 51 23 51 51v230c0 35-28 63-62 63z m31-71v-171c0-22-18-39-40-39h-202c-22 0-39 17-39 39v179c0 17 14 32 31 32h210c22 0 40-18 40-40z m-141-148c26 0 47 21 47 47v31c0 26-21 47-47 47s-47-21-47-47v-31c0-26 21-47 47-47z m-15 78c0 9 7 16 15 16s16-7 16-16v-31c0-9-7-16-16-16s-15 7-15 16v31z m89-380c-11 30-40 52-74 52s-63-22-74-52c-40-25-66-70-66-120v-172h31v172c0 30 12 57 31 76v-76c0-26 21-47 47-47h62c26 0 47 21 47 47v76c20-19 32-46 32-76v-172h31v172c0 50-27 95-67 120z m-27-26v-94c0-9-7-15-16-15h-62c-9 0-16 6-16 15v94c0 2 0 3 1 5 0 7 3 14 6 20 8 11 20 20 34 21 2 1 4 1 6 1s4 0 6-1c14-1 27-10 34-21 4-6 6-13 6-20 1-2 1-3 1-5z m-344 484h-218c-35 0-63-28-63-62v-188c0-27 17-49 41-58-6-16-10-33-10-51v-391h32v391c0 17 3 33 10 47 5 11 12 21 21 29v-76c0-26 21-47 47-47h62c26 0 47 21 47 47v76c8-8 15-18 20-29 8-14 11-30 11-47v-391h32v391c0 18-4 35-10 51 24 9 41 31 41 58v188c0 34-28 62-63 62z m-62-359c0-9-7-16-16-16h-62c-9 0-16 7-16 16v94c0 2 0 3 1 5 0 7 2 14 6 19 7 12 20 20 34 22 2 1 4 1 6 1s4 0 6-1c14-2 26-10 34-22 3-5 6-12 6-19 1-2 1-3 1-5v-94z m94 109c0-14-11-27-25-30-11 16-25 30-42 40-9 26-31 46-58 51v80c0 9-7 16-16 16s-16-7-16-16v-80c-27-5-49-25-58-51-17-10-31-24-42-40-14 3-25 16-25 30v188c0 17 14 31 32 31h218c17 0 32-14 32-31v-188z m-219-281h156v-31h-156v31z" horiz-adv-x="1000" />

<glyph glyph-name="coding_small" unicode="&#xe80f;" d="M781 444v156c0 34-28 63-62 63h-156c-35 0-63-29-63-63v-156c0-35 28-63 63-63h156c34 0 62 28 62 63z m-31 145v-114c0-17-14-31-31-31h-156c-18 0-32 14-32 31v114c0 24 19 42 42 42h135c23 0 42-18 42-42z m-109-114c26 0 47 21 47 47v31c0 26-21 47-47 47s-47-21-47-47v-31c0-26 21-47 47-47z m-16 78c0 9 7 16 16 16s15-7 15-16v-31c0-9-7-16-15-16s-16 7-16 16v31z m-625-515h31v188c1 17 15 30 32 30s30-13 31-30v-97h31v127c0 17 14 32 31 32s32-15 32-32v-127h31v159c0 17 14 31 31 31s31-14 31-31v-159h32v315c0 3 0 6 1 9 4 13 16 22 30 22 17 0 31-14 31-31v-406h31v187h188v-187h31v250c0 17 14 31 31 31s32-14 32-31v-250h31v93c0 17 14 32 31 32s31-15 31-32v-93h32v62c0 17 14 31 31 31s31-14 31-31v-62h31v32c1 17 15 30 32 30s30-13 31-30v-32h31v32c-1 34-28 61-62 61-13 0-25-3-35-10-9 24-32 42-59 42-13 0-25-4-35-11-9 24-32 42-59 42-11 0-22-3-31-9v40h187v500h-812v-446c-9 5-20 9-31 9-35 0-62-28-63-62v-188z m344 468v47c0 9-7 16-16 16s-15-7-15-16v-55c-19-11-32-31-32-54v-31h-31c-17 0-31 14-31 31v125c0 17 14 31 31 31h156c17 0 32-14 32-31v-125c0-17-15-31-32-31v31c0 34-28 62-62 62z m62-125c35 0 63 28 63 63v125c0 34-28 62-63 62h-156c-34 0-62-28-62-62v-125c0-35 28-63 62-63h31v-39c-9 5-20 8-31 8-23 0-43-12-54-31h-71v375h750v-375h-165c-11 19-31 31-54 31s-43-12-54-31h-196v62z" horiz-adv-x="1000" />

<glyph glyph-name="cold" unicode="&#xe810;" d="M797 329h-83l51-51-22-22-66 67-7 6h-132l93-94h103v-31h-71l58-58-23-22-58 58v-72h-31v103l-94 94v-133l73-72-22-23-51 51v-82h-31v82l-51-51-22 23 73 72v133l-94-94v-103h-31v72l-58-58-22 22 58 58h-72v31h103l94 94h-133l-6-6-66-67-23 22 51 51h-82v31h82l-51 51 23 22 66-66 6-7h133l-94 94h-103v31h72l-58 58 22 23 58-58v71h31v-103l94-93v132l-6 7-67 66 22 22 51-51v83h31v-83l51 51 22-22-66-66-7-7v-132l94 93v103h31v-71l58 58 23-23-58-58h71v-31h-103l-93-94h132l7 7 66 66 22-22-51-51h83v-31z" horiz-adv-x="1000" />

<glyph glyph-name="connectivity" unicode="&#xe811;" d="M313 631v63c0 17-15 31-32 31h-62c-17 0-31-14-31-31v-63c-18 0-32-14-32-31v-94h188v94c0 17-14 31-31 31z m-94 63h62v-63h-62v63z m594-594v63c0 17-15 31-32 31h-62c-17 0-31-14-31-31v-63c-18 0-32-14-32-31v-94h188v94c0 17-14 31-31 31z m-94 63h62v-63h-62v63z m-156 187v63c0 17-15 31-32 31h-62c-17 0-31-14-31-31v-63c-18 0-32-14-32-31v-94h188v94c0 17-14 31-31 31z m-94 63h62v-63h-62v63z m344 218v63c0 17-15 31-32 31h-62c-17 0-31-14-31-31v-63c-18 0-32-14-32-31v-94h188v94c0 17-14 31-31 31z m-94 63h62v-63h-62v63z m-406-594v63c0 17-15 31-32 31h-62c-17 0-31-14-31-31v-63c-18 0-32-14-32-31v-94h188v94c0 17-14 31-31 31z m-94 63h62v-63h-62v63z m375 406h-188v31h188v-31z m-344-313v188h31v-188h-31z m469 0v188h31v-188h-31z m-313-187h188v-31h-188v31z m-77 85l59 59 18-19-58-58-19 18z m262 262l78 78 19-19-79-78-18 19z m-261 77l76-77-18-19-77 77 19 19z m279-280l64-64-18-19-64 64 18 19z" horiz-adv-x="1000" />

<glyph glyph-name="cookie" unicode="&#xe812;" d="M484 6c-181 0-328 147-328 328 0 106 52 206 138 268 56 40 122 61 190 61h16l-1-78-27-60 19-19h72v-99l46-24 59 30h82v-63h63v-16c0-181-148-328-329-328z m-15 625c-57-3-111-22-157-55-78-55-124-146-124-241 0-164 133-297 296-297s289 125 297 281h-62v63h-43l-67-34-78 40v87h-53l-44 44 35 76v36z m-125-218h-63v-63h63v63z m219-125h-63v-63h63v63z m-188-32h-31v-31h31v31z m313 63h-32v-31h32v31z m-282 219h-62v-63h62v63z m63-188h62v63h-62v-63z m0-250h31v31h-31v-31z m-125 0h62v63h-62v-63z m-63 156h-62v-62h62v62z m125 94h-31v-31h31v31z m-187 31h-31v-31h31v31z m31 125h-31v-31h31v31z m375-312h-31v-31h31v31z m63 0h62v62h-62v-62z m-63-94h-62v-62h62v62z m188 375h-94v57l94 46v-103z m-63 31h31v22l-31-16v-6z m-94 22l-93 47v88h93v-135z m-62 66l31-16v53h-31v-37z m187 69h-31v-32h31v32z m94 62h-31v-31h31v31z m-31-281h-31v-31h31v31z m-188 31h-31v-31h31v31z m-93 250h-32v-31h32v31z" horiz-adv-x="1000" />

<glyph glyph-name="cpu" unicode="&#xe813;" d="M641 209h-282v282h282v-282z m-250 32h218v218h-218v-218z m437 281v31h-62v63h-63v62h-31v-62h-63v62h-31v-62h-62v62h-32v-62h-62v62h-31v-62h-63v62h-31v-62h-63v-63h-62v-31h62v-63h-62v-31h62v-62h-62v-32h62v-62h-62v-31h62v-63h-62v-31h62v-63h64v-62h31v62h62v-62h32v62h62v-62h31v62h63v-62h31v62h63v-62h31v62h62v63h62v31h-62v63h62v31h-62v62h62v32h-62v62h62v31h-62v63h62z m-94-406h-468v468h468v-468z" horiz-adv-x="1000" />

<glyph glyph-name="data-analysis-1" unicode="&#xe814;" d="M438 256v-62h-63v62h63z m31 32h-125v-125h125v125h0z m156-32c17 0 31-14 31-31s-14-31-31-31-31 14-31 31 14 31 31 31h0z m0 32h0c-34 0-62-29-62-63s28-62 62-62h0c34 0 63 28 63 62s-29 63-63 63h0z m16-188c8 0 15-7 15-16s-7-15-15-15h-250c-9 0-16 7-16 15s7 16 16 16h250z m0 31h-250c-26 0-47-21-47-47s21-46 47-46h250c26 0 47 20 47 46s-21 47-47 47h0z m141 63h-32v156h-31v47c0 43-35 78-78 78h-50c-12 0-24-5-33-14l-17-17h-50l-18 17c-8 9-20 14-33 14h-49c-43 0-78-35-78-78v-47h-32v-156h-31c-17 0-31-14-31-31h0c0-18 14-32 31-32h31v-156h469v156h32c17 0 31 14 31 31h0c0 18-14 32-31 32z m-438 187h62v32h-59c6 18 24 31 44 31h49c4 0 8-2 11-5l27-26h75l27 26c3 3 7 5 11 5h3v-63h31v63h16c20 0 37-13 44-31h-29v-32h32v-31h-219v31h-31v-31h-94v31z m375-375h-406v313h406v-313z m-438 563v-63h-31v188h-31v-188h-31v94h-32v-94h-31v157h-31v-188h219v94h-32z m500 62c-51 0-93-42-93-93s42-94 93-94 94 42 94 94-42 93-94 93z m0-156c-34 0-62 28-62 63s28 62 62 62v-62h63c0-35-28-63-63-63z m-299 187l38-124h70l34 136-30 8-28-113h-23l-57 188-61-153-7 27h-75v-31h51l24-97 64 159z m424-343h-93v-31h93v31z m-31 62h-62v-31h62v31z m-719 0c-17 0-31-14-31-31s14-31 31-31 32 14 32 31-15 31-32 31z m-15-93c-9 0-16-7-16-16s7-16 16-16 15 7 15 16-7 16-15 16z" horiz-adv-x="1000" />

<glyph glyph-name="data-analysis-2" unicode="&#xe815;" d="M563 225v-62h-63v62h63z m31 31h-125v-125h125v125h0z m281-62v125h-31v156l-31-31v-125h-32v62l-31-31v-31h-344v-125h-31v-156h31v-94h469v94h31v156h-31z m-31-219h-406v313h406v-313z m-125 156c-35 0-63 28-63 63s28 62 63 62 62-28 62-62-28-63-62-63z m0 94c-17 0-31-14-31-31s14-31 31-31 31 14 31 31-14 31-31 31z m-16-219h-187c-26 0-47 21-47 47s21 47 47 47h187c26 0 47-21 47-47s-21-47-47-47z m-187 63c-9 0-16-7-16-16s7-15 16-15h187c9 0 16 6 16 15s-7 16-16 16h-187z m-297 344c-52 0-94-43-94-94s42-94 94-94 94 42 94 94-43 94-94 94z m0-157c-35 0-63 28-63 63s28 62 63 62v-62h62c0-35-28-63-62-63z m125 250v63h-31v-63h-32v188h-31v-188h-31v94h-31v-94h-32v157h-31v-188h250v31h-31z m261 39l23-132h73l49 325-31 5-45-299h-21l-40 243-68-237-18 57h-74v-32h51l44-131 57 201z m-324-382h-156v-32h156v32z m-62-63h-94v-31h94v31z m94-62h-188v-32h188v32z m125 343h-94v-31h94v31z m-32 63h-62v-31h62v31z m0 219c0-18 14-32 32-32s31 14 31 32-14 31-31 31-32-14-32-31z m63-47c0-9 7-16 15-16s16 7 16 16-7 15-16 15-15-7-15-15z" horiz-adv-x="1000" />

<glyph glyph-name="data-polish" unicode="&#xe816;" d="M156 69v-31s-31 0-31 0v31h-31s0 31 0 31h31v31s31 0 31 0v-31s32 0 32 0v-31h-32z m688-125v31s-31 0-31 0v31s-32 0-32 0v-31s-31 0-31 0v-31h31s0-32 0-32h32v32s31 0 31 0z m-615 832l-22 22-22-22 22-23 22 23z m-132-133l-23 22-22-22 22-22 23 22z m88 89l-22 22-23-22-22 22-22-22 22-23-22-22 22-22 22 22 23-22 22 22-22 22 22 23z m44-89l-22 22-22-22 22-22 22 22z m-132 133l-23 22-22-22 22-23 23 23z m882-375l-22 22-22-22 22-23 22 23z m-132-133l-23 22-22-22 22-22 23 22z m88 89l-22 22-23-22-22 22-22-22 22-23-22-22 22-22 22 22 23-22 22 22-22 22 22 23z m44-89l-22 22-22-22 22-22 22 22z m-132 133l-23 22-22-22 22-23 23 23z m-34 324h-32v-31h32v31z m93 63h-31v-32h31v32z m32-688h-32v-31h32v31z m-719-156h-31v-32h31v32z m187 31h-31v-31h31v31z m250 844h-31v-31h31v31z m-531-406h-31v-32h31v32z m688-282v-31h-594v438h31v-407h31v500h94v-500h31v250h94v-250h31v375h94v-375h31v94h94v-94h63z m-500 16h31v453h-31v-453z m156 203h-31v-219h31v219z m125 125h-31v-328h31v328z m125-281h-31v-47h31v47z" horiz-adv-x="1000" />

<glyph glyph-name="design" unicode="&#xe817;" d="M313 569h31v-31h-31v31z m93-125h32v31h-32v-31z m63 62h31v32h-31v-32z m156 32h31v31h-31v-31z m31-94h32v31h-32v-31z m188 15v-125c0-26-21-46-47-46h-250c-9 0-16-7-16-16v-78h63v-31h-31v-188h-94v188h-31v31h62v78c0 26 21 47 47 47h250c9 0 16 7 16 15v125c0 9-7 16-16 16h-16v-31c0-35-28-63-62-63h-438c-34 0-62 28-62 63v125c0 34 28 62 62 62h438c34 0 62-28 62-62v-63h16c26 0 47-21 47-47z m-94 110h-31v31h-156v-31h-32v31h-250c-17 0-31-14-31-31v-94h31v-31h-31c0-17 14-31 31-31h63v31h31v-31h344c17 0 31 14 31 31v125z m-219-406h-31v-157h31v157z" horiz-adv-x="1000" />

<glyph glyph-name="development" unicode="&#xe818;" d="M531 194h-31v31h31v-31z m32-31h-32v-32h32v32z m-125-63h-32v-31h32v31z m-188 125h-31v-31h31v31z m-94 0h32v31h-32v-31z m142-91h-31v-31h31v31z m546-96h-94v-32h-31v32h-125v-32h-31v32h-125v-32h-32v32h-125v-32h-31v32h-94c-17 0-31-15-31-32h0c0-17 14-31 31-31h688c17 0 31 14 31 31h0c0 17-14 32-31 32z m-125 562v-187c-1-34-29-62-63-62-13 0-25 4-35 11-8-24-31-42-58-42-13 0-25 4-35 11-9-25-32-42-59-42-11 0-22 3-31 8v-102c0-34-29-62-63-62s-62 28-62 62v171c-19 0-35 10-45 26-15 22-17 52-7 76l54 158 2 1c11 38 47 67 89 67h219c52 0 94-42 94-94z m-406-203v125l-23-65c-6-16-5-35 4-48 3-6 9-12 18-12h1z m375 203c0 34-29 63-63 63h-219c-9 0-18-3-27-7-21-10-35-31-35-56v-405c0-17 14-31 31-31s31 14 31 31v315h32v-159c0-17 14-31 31-31s31 14 31 31v159h0s31 0 31 0h0v-127c0-18 14-32 32-32s31 14 31 32v127h0s31 0 31 0h0v-97c1-17 14-30 31-30s31 13 32 30v187z" horiz-adv-x="1000" />

<glyph glyph-name="drill" unicode="&#xe819;" d="M906 413v125c0 34-28 62-62 62h-438v-31h-93v-63h-219c-17 0-31-14-31-31s14-31 31-31h219v-63h93v-31h250v-94h32v-125h-94v-156h312v156h-62v219c34 0 62 28 62 63z m-562 0v125h62v-125h-62z m94-32v188h31v-188h-31z m437-281v-94h-250v94h250z m-62 31h-94v219h94v-219z m-125 250h-188v188h344c17 0 31-14 31-31v-125c0-18-14-32-31-32h-156z" horiz-adv-x="1000" />

<glyph glyph-name="error" unicode="&#xe81a;" d="M609 288c9 0 16-7 16-16s-7-16-16-16h-218c-9 0-16 7-16 16s7 16 16 16h218z m0 31h-218c-26 0-47-21-47-47s21-47 47-47h218c26 0 47 21 47 47s-21 47-47 47h0z m141 62h-31v157h-438v-157h-31c-17 0-31-14-31-31h0c0-17 14-31 31-31h31v-156h438v156h31c18 0 31 14 31 31h0c0 17-13 31-31 31z m-62-187h-375v312h375v-312z m-39 236l-22 22-33-33-33 33-23-22 34-33-34-33 23-22 33 33 33-33 22 22-33 33 33 33z m-187 0l-23 22-33-33-33 33-22-22 33-33-33-33 22-22 33 33 33-33 23 22-34 33 34 33z m-181 201h-62v63h-63v-31h32v-63h62v-31h31v62z m469-31h63v63h31v31h-63v-63h-62v-62h31v31z m-231-12l-22 23 44 44-44 44 22 22-22 22-44-44 44-44-44-44 44-44 22 22z m325-550h-31v62h-63v31h-31v-62h62v-63h63v32z m-625 31h62v62h-31v-31h-62v-62h-32v-32h63v63z m329-68l-45 44 45 44-45 44-22-22 22-22-44-44 44-44-22-22 22-22 45 44z" horiz-adv-x="1000" />

<glyph glyph-name="filter" unicode="&#xe81b;" d="M219 631v-105l8-9 211-241v-345l53 53 94 94 9 9v108c5-1 10-1 15-1 61 0 110 49 110 109 0 30-13 58-33 78l119 136 8 9v105h-594z m469-328c0-43-35-78-79-78-5 0-10 1-15 2v49l71 82c14-15 23-34 23-55z m93 235l-120-138-22-25-76-87v-188l-94-94v282l-219 250v62h531v-62z m-156-94v31h-33c-2 10-6 19-11 28l23 23-22 22-24-23c-8 5-17 9-27 11v33h-31v-33c-10-2-19-6-28-11l-23 23-22-22 23-23c-5-9-9-18-12-28h-32v-31h32c2-10 6-19 12-28l-23-23 22-22 23 23c8-5 18-9 28-11v-33h31v33c10 1 19 5 27 11l24-23 22 22-23 23c5 8 9 18 11 28h33z m-76-18c-9-8-21-13-33-13s-25 5-33 13h0c-9 9-14 21-14 33s5 25 14 34h0c8 8 20 13 33 13s24-5 33-13h0c8-9 14-21 14-34s-6-24-14-33h0z" horiz-adv-x="1000" />

<glyph glyph-name="fork-lift-crate" unicode="&#xe81c;" d="M906 257v156h-156v93h-62v126h-32v-188h0v-188h-29l-4 11-111 301c-12 38-48 63-89 63h-204v-312c-52 0-94-42-94-94v-156h71c11-19 31-31 54-31s43 12 54 31h204c11-19 31-31 55-31s43 12 53 31h134v156h187v32h-31z m-656 343h174c27 0 51-17 59-42l111-302h-200l-22 46-9 17h-113v281z m0-531c-17 0-31 14-31 31s14 31 31 31 32-13 32-31-14-31-32-31z m313 0c-18 0-31 14-31 31s13 31 31 31 31-13 31-31-14-31-31-31z m94 31h-32c0 35-28 63-62 63s-63-28-63-63h-187c0 35-28 63-63 63s-62-28-62-63h-31v125c0 35 27 63 62 63h125l16-32 15-31h282v-125z m31 0v375h31v-62h0v-188h0v-125h-31z m62 157v125h125v-125h-125z" horiz-adv-x="1000" />

<glyph glyph-name="fork-lift" unicode="&#xe81d;" d="M938 100h-188v406h-62v126h-32v-188h0v-188h-29l-4 11-111 301c-12 38-48 63-89 63h-204v-312c-52 0-94-42-94-94v-156h71c11-19 31-31 54-31s43 12 54 31h204c11-19 31-31 55-31s43 12 53 31h134s187 0 187 0v31z m-250 375h31v-375h-31v375z m-438 125h174c27 0 51-17 59-42l111-302h-200l-22 46-9 17h-113v281z m0-531c-17 0-31 14-31 31s14 31 31 31 32-13 32-31-14-31-32-31z m313 0c-18 0-31 14-31 31s13 31 31 31 31-13 31-31-14-31-31-31z m0 94c-35 0-63-28-63-63h-187c0 35-28 63-63 63s-62-28-62-63h-31v125c0 35 27 63 62 63h125l16-32 15-31h282v-125h0s-31 0-31 0c0 35-28 63-63 63z" horiz-adv-x="1000" />

<glyph glyph-name="gas-manometer" unicode="&#xe81e;" d="M746 668c6-3 12-5 20-5 26 0 47 21 47 47s-21 47-47 47-47-21-47-47c0-7 2-14 4-20l-31-32c-6 3-13 5-20 5s-14-2-19-4l-25 25 10 10-44 44-44-44 44-44 12 12 24-25c-1-2-1-3-2-5h-96v31h-63v-94h-31c-35-18-60-52-62-93h-1v-532h250v531h0c-2 42-27 76-62 94h-31v31h96c7-18 24-31 44-31s38 13 44 31h66v32h-66s-1 3-2 4l32 32z m-152-693h-188v469h188v-469z m-40 563c24-15 37-37 39-63h-186c2 26 16 48 39 63h109z" horiz-adv-x="1000" />

<glyph glyph-name="gas" unicode="&#xe81f;" d="M625 475c-2 42-27 76-62 94v156c0 35-29 63-63 63s-62-28-62-63v-154c-36-18-60-54-63-96h0v-531h250v531h0z m-156 250c0 18 14 32 31 32s31-14 31-32v-93h-62v93z m-25-187h109c24-15 38-37 40-63h-186c2 26 15 48 36 63z m150-563h-188v469h188v-469z" horiz-adv-x="1000" />

<glyph glyph-name="gear" unicode="&#xe820;" d="M531 631v-23c0-23 15-43 37-50 11-4 21-8 31-13 7-4 16-6 24-6 14 0 27 5 37 15l17 17 44-44-17-17c-16-16-20-40-9-61 5-10 9-20 13-31 7-21 27-36 50-36h23v-63h-23c-23 0-43-15-50-37-4-10-8-21-13-30-11-21-7-46 9-62l17-16-44-44-17 16c-10 10-23 16-37 16-8 0-17-3-24-6-10-5-20-10-31-13-22-7-37-27-37-50v-24h-62v24c0 23-15 43-37 50-11 3-21 8-31 13-7 3-16 6-24 6-14 0-27-6-37-16l-17-16-44 44 17 16c16 16 20 41 9 62-5 9-9 20-12 30-8 22-28 37-50 37h-24v63h24c22 0 42 14 50 36 3 11 7 21 12 31 11 21 7 45-9 61l-17 17 44 44 17-17c10-9 23-15 37-15 8 0 17 2 24 6 10 5 20 9 31 13 22 7 37 27 37 50v23h62m32 32h-125v-55c0-10-7-18-16-20-12-5-24-9-35-15-3-1-7-2-10-2-5 0-11 2-15 6l-39 39-88-89 38-39c7-6 8-16 4-25-5-11-10-23-14-35-3-9-11-15-20-15h-55v-125h55c9 0 17-6 20-15 4-13 9-24 14-35 5-9 3-19-4-26l-38-39 88-88 39 39c4 4 9 6 15 6 3 0 7-1 10-2 11-6 23-11 35-15 9-3 16-11 16-20v-55h125v55c0 9 6 17 15 20 12 4 24 9 35 15 3 1 7 2 10 2 5 0 11-2 15-6l39-39 88 88-38 39c-7 7-8 17-4 26 5 11 10 22 14 35 3 9 11 15 21 15h54v125h-54c-10 0-18 6-21 15-4 12-9 24-14 35-5 9-3 19 4 25l38 39-88 89-39-39c-4-4-9-6-15-6-3 0-7 1-10 2-11 6-23 11-35 15-9 2-15 10-15 20v55h0z m-63-219c52 0 94-42 94-94s-42-94-94-94-94 42-94 94 42 94 94 94m0 31c-69 0-125-56-125-125s56-125 125-125 125 56 125 125-56 125-125 125h0z" horiz-adv-x="1000" />

<glyph glyph-name="high-five" unicode="&#xe821;" d="M782 475c-52 0-94-42-94-94v-43l-41-82h41v-31c0-8 1-17 3-25l-123 124-5-5v94c0 34-29 62-63 62h-31c-35 0-63-28-63-62v-95l-5 6-123-123c2 7 3 16 3 24v31h41l-41 82v43c0 52-42 94-94 94h-93v-500h187l-7 45 205 205h11l205-205-7-45h187v500h-93z m-532-187v-63c0-35-28-62-63-62h-62v281h62c35 0 63-28 63-63v-50l22-43h-22z m219-32l-31 31v41c0 12 10 22 22 22h9v-94z m0 125h-9c-8 0-16-2-22-5v37c0 17 14 31 31 31v-63z m62-93l-31-32v94h9c12 0 22-10 22-22v-40z m0 88c-7 3-14 5-22 5h-9v63c17 0 31-14 31-31v-37z m313-213h-62c-35 0-63 27-63 62h62v31h-62v32h-22l22 43v50c0 35 28 63 63 63h62v-281z m-31 93h-32v32h32v-32z m-32 63h-31v31h31v-31z m-125 94h-62v31h62v-31z m3 153l-67-68-22 22 67 68 22-22z m-409-310v-31h-62v31h62z m-94 32h32v-32h-32v32z m32 62h31v-31h-31v31z m125 94h62v-31h-62v31z m18 144l68-68-22-22-68 67 22 23z m138 75h31v-125h-31v125z" horiz-adv-x="1000" />

<glyph glyph-name="hot" unicode="&#xe822;" d="M828 329v31h-157c-1 13-3 25-7 36l59 24-12 29-59-24c-5 10-12 19-19 28l44 46 66 67-22 22-109-113c-10 9-21 16-32 22l24 58-29 12-24-58c-11 4-23 6-35 7v157h-32v-157c-12-1-24-3-35-7l-24 58-29-12 24-58c-11-6-20-12-30-20l-111 111-22-22 66-67 45-44c-7-9-14-19-20-29l-59 23-11-29 58-24c-4-12-6-23-7-36h-157v-31h157c1-12 3-24 7-35l-58-25 11-28 59 24c5-11 12-21 20-30l-45-45-66-66 22-22 66 66 45 45c9-8 19-15 30-20l-24-59 29-12 24 59c11-4 23-6 35-7v-157h32v157c12 1 24 3 35 7l24-59 29 12-24 59c11 5 22 13 32 21l43-46 66-66 22 22-66 66-44 46c8 9 14 19 19 29l59-24 12 28-59 25c4 11 6 23 7 35h157z m-328-125c-78 0-141 63-141 141s63 140 141 140 141-62 141-140-63-141-141-141z" horiz-adv-x="1000" />

<glyph glyph-name="humidity" unicode="&#xe823;" d="M500 413s125-157 125-250c0-70-56-125-125-125s-125 55-125 125c0 93 125 250 125 250m0 50l-24-31c-14-17-132-168-132-269 0-87 70-157 156-157s156 70 156 157c0 101-118 252-132 269l-24 31h0z m219 106s62-78 62-125c0-35-28-63-62-63s-63 28-63 63c0 47 63 125 63 125m0 50l-25-31c-11-14-69-89-69-144 0-52 42-94 94-94s94 42 94 94c0 55-58 130-70 144l-24 31h0z m-375-3s31-39 31-63c0-17-14-31-31-31s-31 14-31 31c0 24 31 63 31 63m0 50l-25-31c-9-11-38-50-38-82 0-34 28-62 63-62s62 28 62 62c0 32-29 71-38 82l-24 31h0z m250-503h-31c0-35-29-63-63-63v-31c52 0 94 42 94 94z" horiz-adv-x="1000" />

<glyph glyph-name="integration" unicode="&#xe824;" d="M781 475h-47c26 0 47 21 47 47v125c0 26-21 47-47 47h-125c-26 0-46-21-46-47v-125c0-26 20-47 46-47h-46c-18 0-32-14-32-31v-125h125v62h32v-62h31v31h31v-31h63v125c0 17-15 31-32 31z m-187 47v125c0 9 7 16 15 16h125c9 0 16-7 16-16v-125c0-9-7-16-16-16h-125c-8 0-15 7-15 16z m125-63c0-8-7-15-16-15h-62c-9 0-16 7-16 15v16h94v-16z m0 79h-94v31h94v-31z m-63 62h-31v31h31v-31z m32 31h31v-31h-31v31z m-469-500v-15c0-26 21-47 47-47h-47c-17 0-31-14-31-31v-126h281v126c0 17-14 31-31 31h-47c26 0 47 21 47 47v125c0 26-21 47-47 47h-125c-26 0-47-21-47-47v-110z m31-15v125c0 8 7 15 16 15h125c8 0 15-7 15-15v-125c0-9-7-16-15-16h-125c-9 0-16 7-16 16z m125-63c0-9-7-15-16-15h-62c-9 0-16 6-16 15v16h94v-16z m0 78h-94v32h94v-32z m-62 63h-32v31h32v-31z m31 31h31v-31h-31v31z m-63 391c0-9-7-16-15-16s-16 7-16 16 7 15 16 15 15-7 15-15z m94-16h-31v31h31v-31z m0-62h-125v31h125v-31z m94 0v93h-31v63h-63v62h-31v-62h-31v94h-32v-94h-93v-63h-32v-93h32v-63h-32v-156h313v156h-31v63h31z m-250 125h187v-157h-187v157z m156-188v-31h-125v31h125z m63-125h-63v31h-125v-31h-62v94h31v-31h187v31h32v-94z m218-141c0-8-7-15-15-15s-16 7-16 15 7 16 16 16 15-7 15-16z m94-15h-31v31h31v-31z m0-63h-125v32h125v-32z m94 0v94h-31v63h-63v31h-31v-31h-31v31h-32v-31h-93v-63h-32v-94h32v-62h-32v-157h313v157h-31v62h31z m-250 125h187v-156h-187v156z m156-187v-31h-125v31h125z m63-125h-63v31h-125v-31h-62v94h31v-32h187v32h32v-94z" horiz-adv-x="1000" />

<glyph glyph-name="jobsearch" unicode="&#xe825;" d="M500 413h-125v31h125v-31z m-94 93h-31v-31h31v31z m94 0h-31v-31h31v31z m389-548l-44-44c-12-12-32-12-44 0l-30 30s-3 0-5 0h-532c-26 0-46 21-46 47v293c-20 39-32 82-32 129s12 90 32 128v168c0 26 20 47 46 47h532c26 0 47-21 47-47v-630l76-77c13-12 13-32 0-44z m-451 205c137 0 250 112 250 250s-113 250-250 250-250-113-250-250 112-250 250-250z m302-188l-98 98c-13 13-13 32 0 44l-57 56c-42-26-93-42-147-42-89 0-168 41-219 105v-245c0-9 7-16 15-16h506z m41 734c0 9-7 16-15 16h-532c-8 0-15-7-15-16v-120c51 64 130 105 219 105 155 0 281-126 281-281 0-79-32-150-84-200l51-51h0c12 12 32 12 44 0l51-52v599z m-156-390v-19c-38-64-108-106-187-106s-150 42-188 106v19c0 17 14 31 31 31h78c-26 0-46 21-46 47v16h-16c-9 0-16 6-16 15v63c0 8 7 15 16 15h16v47c0 26 20 47 46 47h157c26 0 47-21 47-47v-47h15c9 0 16-7 16-15v-63c0-9-7-15-16-15h-15v-16c0-26-21-47-47-47h78c17 0 31-14 31-31z m-266 62h157c8 0 15 7 15 16v156c0 9-7 16-15 16h-157c-8 0-15-7-15-16v-156c0-9 7-16 15-16z m141-31h-125v-16c0-8 7-15 16-15h93c9 0 16 7 16 15v16z m0-250h-219v-31h219v31z m0-62h-219v-32h219v32z" horiz-adv-x="1000" />

<glyph glyph-name="key" unicode="&#xe826;" d="M745 667l-22 22 63 63 22-22-63-63z m0-384l-22-22 63-63 22 22-63 63z m-437 406l-63 63-22-23 63-62 22 22z m-63-491l63 63-22 22-63-62 22-23z m36 277h-93v-31h93v31z m563 0h-94v-31h94v31z m-125 121v-231c0-25-21-46-47-46h-78v-277c0-37-30-67-67-67h-89v74l26 34-33 33 31 31-24 25v147h-83c-23 0-42 19-42 42v237c0 35 29 65 64 65h61v62h31v-62h183c37 0 67-30 67-67z m-156-277h-32v-125h-31v125h-31v-134l38-38-32-31 30-30-36-48v-32h58c20 0 36 16 36 36v277z m125 277c0 19-16 35-36 35h-275c-18 0-33-15-33-33v-237c0-6 5-11 11-11h317c9 0 16 7 16 15v231z m-32-43c0 26-21 47-47 47s-46-21-46-47 20-47 46-47 47 21 47 47z m-31 0c0-9-7-15-16-15s-15 6-15 15 7 16 15 16 16-7 16-16z m-156 16h-94v-31h94v31z" horiz-adv-x="1000" />

<glyph glyph-name="machine-learning" unicode="&#xe827;" d="M438 256v-62h-63v62h63z m31 32h-125v-125h125v125h0z m156-32c17 0 31-14 31-31s-14-31-31-31-31 14-31 31 14 31 31 31h0z m0 32h0c-34 0-62-29-62-63s28-62 62-62h0c34 0 63 28 63 62s-29 63-63 63h0z m16-188c8 0 15-7 15-16s-7-15-15-15h-250c-9 0-16 7-16 15s7 16 16 16h250z m0 31h-250c-26 0-47-21-47-47s21-46 47-46h250c26 0 47 20 47 46s-21 47-47 47h0z m141 63h-32v156h-31v47c0 43-35 78-78 78h-50c-12 0-24-5-33-14l-18-17h-49l-18 17c-8 9-20 14-33 14h-49c-43 0-78-35-78-78v-47h-32v-156h-31c-17 0-31-14-31-31h0c0-18 14-32 31-32h31v-156h469v156h32c17 0 31 14 31 31h0c0 18-14 32-31 32z m-438 187h62v32h-59c6 18 24 31 44 31h49c4 0 8-2 11-5l27-27h75s27 27 27 27c3 3 7 5 11 5h3v-63h31v63h16c20 0 37-13 44-31h-29v-32h32v-31h-219v31h-31v-31h-94v31z m375-375h-406v313h406v-313z m89 567l-22 23-94-94 22-22 94 93z m-469-71l-94 93-22-22 94-94 22 23z m-58-58h-125v-31h125v31z m594 0h-125v-31h125v31z m-344 250h-31v-219h31v219z m32-125h31v156h-31v-156z m-125 31h31v156h-31v-156z m0-94h31v63h-31v-63z m125 0h31v32h-31v-32z m-63 219h31v31h-31v-31z" horiz-adv-x="1000" />

<glyph glyph-name="marketing" unicode="&#xe828;" d="M844 350v-31s-31 0-31 0v31h-32s0 31 0 31h32v32s31 0 31 0v-32s31 0 31 0v-31h-31z m-594 375v31s-31 0-31 0v32s-31 0-31 0v-32s-32 0-32 0v-31h32s0-31 0-31h31v31s31 0 31 0z m667 19l-23 23-22-23 22-22 23 22z m-133-132l-22 22-22-22 22-22 22 22z m88 88l-22 23-22-23-22 23-23-23 23-22-23-22 23-22 22 22 22-22 22 22-22 22 22 22z m45-88l-23 22-22-22 22-22 23 22z m-133 132l-22 23-22-23 22-22 22 22z m-524-312l-22 22-22-22 22-22 22 22z m-132-133l-22 23-23-23 23-22 22 22z m88 89l-22 22-22-22-23 22-22-22 22-22-22-23 22-22 23 22 22-22 22 22-22 23 22 22z m44-89l-22 23-22-23 22-22 22 22z m-132 133l-22 22-23-22 23-22 22 22z m341 262h-31v-31h31v31z m406-469h-31v-31h31v31z m-156 0v-125h-63v-156h-31v156h-62v-156h-32v156h-62v-156h-31v156h-63v-156h-31v156h-63v125h438z m-31-31h-375v-63h375v63z m-63 250c0 69-56 125-125 125h-219l32-31h187c52 0 94-43 94-94s-42-94-94-94h-62v94h-32v-125h94c69 0 125 56 125 125z m-62 0c0 34-29 62-63 62h-156l31-31h125c17 0 31-14 31-31s-14-31-31-31h-31v-32h31c34 0 63 28 63 63z" horiz-adv-x="1000" />

<glyph glyph-name="message" unicode="&#xe829;" d="M156 69v-31s-31 0-31 0v31h-31s0 31 0 31h31v31s31 0 31 0v-31s32 0 32 0v-31h-32z m688-125v31s-31 0-31 0v31s-32 0-32 0v-31s-31 0-31 0v-31h31s0-32 0-32h32v32s31 0 31 0z m-615 832l-22 22-22-22 22-23 22 23z m-132-133l-23 22-22-22 22-22 23 22z m88 89l-22 22-23-22-22 22-22-22 22-23-22-22 22-22 22 22 23-22 22 22-22 22 22 23z m44-89l-22 22-22-22 22-22 22 22z m-132 133l-23 22-22-22 22-23 23 23z m882-375l-22 22-22-22 22-23 22 23z m-132-133l-23 22-22-22 22-22 23 22z m88 89l-22 22-23-22-22 22-22-22 22-23-22-22 22-22 22 22 23-22 22 22-22 22 22 23z m44-89l-22 22-22-22 22-22 22 22z m-132 133l-23 22-22-22 22-23 23 23z m-34 262h-32v-32h32v32z m-32-157v-312c0-35-28-63-62-63h-438c-34 0-62 28-62 63v312c0 6 0 11 2 16 2 11 8 20 15 27 12 12 28 20 45 20h438c17 0 34-8 45-20 7-7 13-16 15-27 2-5 2-10 2-16z m-518 25l237-162 238 162c-6 4-12 7-19 7h-438c-7 0-13-3-18-7z m487-29l-250-171-250 171v-308c0-17 14-31 31-31h438c17 0 31 14 31 31v308z m156 223h-31v-31h31v31z m32-625h-32v-31h32v31z m-719-156h-31v-32h31v32z m187 31h-31v-31h31v31z m250 781h-31v-31h31v31z m-531-343h-31v-32h31v32z" horiz-adv-x="1000" />

<glyph glyph-name="money" unicode="&#xe82a;" d="M188 444v-469h625v469h-625z m31-31h562v-282h-562v282z m0-313h562v-31h-562v31z m562-94h-562v32h562v-32z m-437 157h-31v218h31v-218z m-31 187l-32-31v31l32 31v-31z m172-187h-33c-25 0-46 20-46 45v127c0 26 21 46 46 46h33c26 0 46-20 46-46v-127c0-25-20-45-46-45z m-33 187c-8 0-14-7-14-15v-127c0-8 6-14 14-14h33c8 0 15 6 15 14v127c0 8-7 15-15 15h-33z m221-187h-33c-26 0-46 20-46 45v127c0 26 20 46 46 46h33c25 0 46-20 46-46v-127c0-25-21-45-46-45z m-33 187c-8 0-15-7-15-15v-127c0-8 7-14 15-14h33c8 0 15 6 15 14v127c0 8-7 15-15 15h-33z m-46 344v31h-63v31h-31v-31h-30c-18 0-32-14-32-32v-61c0-18 14-32 32-32h30v-62h-62v-32h62v-31h31v31h31c17 0 32 15 32 32v61c0 18-15 32-32 32h-31v63h63z m-125-62l1 62h30v-62h-31z m94-33l-1-61h-31v61h32z" horiz-adv-x="1000" />

<glyph glyph-name="magnifier" unicode="&#xe82b;" d="M406 569c34 0 65-13 89-37 23-24 36-55 36-88s-13-65-36-89c-24-23-55-36-89-36s-64 13-88 36c-24 24-37 55-37 89s13 64 37 88c24 24 55 37 88 37m0 31c-40 0-80-15-110-46-61-61-61-160 0-221 30-30 70-45 110-45s80 15 111 45c61 61 61 160 0 221-31 31-71 46-111 46h0z m0 31c50 0 97-19 133-55 65-65 73-170 17-244l-16-22 19-19-19 19-22-16c-32-25-71-38-112-38-50 0-97 20-132 55-36 35-55 82-55 132s19 98 55 133c35 35 82 55 132 55m212-373l177-177-26-26-177 177 13 13h0l13 13m-212 405c-56 0-112-22-154-65-86-85-86-224 0-309 42-42 98-64 154-64 46 0 92 15 131 43l24-23-13-13 221-221 70 70-221 221-13-13-23 24c64 85 57 207-21 285-43 43-98 65-154 65h0z" horiz-adv-x="1000" />

<glyph glyph-name="mouse" unicode="&#xe82c;" d="M656 788v-110c0-9-7-15-15-15h-125c-26 0-47-21-47-47v-79c-88-8-156-82-156-171v-157c0-94 77-171 171-171s172 77 172 171v157c0 89-68 163-156 171v79c0 8 7 15 16 15h125c26 0 47 21 47 47v110h-32z m-187-283v-124h-124c8 65 59 117 124 124z m156-296c0-77-63-140-141-140s-140 63-140 140v141h281v-141z m-2 172h-123v124c65-7 116-59 123-124z" horiz-adv-x="1000" />

<glyph glyph-name="opinion" unicode="&#xe82d;" d="M438 163h-79c26 0 47 20 47 46v157c0 26-21 47-47 47h-156c-26 0-47-21-47-47v-47h-15c-9 0-16-7-16-16v-62c0-9 7-16 16-16h15v-16c0-26 21-46 47-46h-78c-17 0-31-15-31-32v-156h375v156c0 17-14 32-31 32z m-250 46v157c0 8 6 15 15 15h156c9 0 16-7 16-15v-157c0-8-7-15-16-15h-156c-9 0-15 7-15 15z m156-62c0-9-7-16-16-16h-94c-8 0-15 7-15 16v16h125v-16z m0 78h-94v31h94v-31z m-63 63h-31v31h31v-31z m94 31v-31h-31v31h31z m281 0v-31h-31v31h31z m94-31h-31v31h31v-31z m31 0v-63h-125v31h94v32h31z m78 31h-15v47c0 26-21 47-47 47h-156c-26 0-47-21-47-47v-157c0-26 21-46 47-46h156c26 0 47 20 47 46v16h15c9 0 16 7 16 16v62c0 9-7 16-16 16z m-46-110c0-8-7-15-16-15h-156c-9 0-16 7-16 15v141h188v-141z m93-78v-156h-375v156c0 17 14 32 32 32h93v-16c0-9 7-16 16-16h94c8 0 15 7 15 16v16h94c17 0 31-15 31-32z m-500 500h-218v32h218v-32z m-31-62h-187v31h187v-31z m-31-63h-156v32h156v-32z m80-62h-299v237c0 24 20 44 44 44h256c24 0 44-20 44-44v-193c0-25-20-45-44-45z m-268 31h268c8 0 14 6 14 13v193c0 7-6 13-14 13h-255c-7 0-13-6-13-13v-206z m643 188h-192c-25 0-44-20-44-45v-130c0-25 19-44 44-44h237v174c0 25-20 45-45 45z m14-188h-206c-7 0-13 6-13 13v130c0 7 6 13 13 13h192c8 0 14-6 14-13v-143z m-33 105l-88-88-22 21-44 45 22 22 44-44 66 66 22-22z" horiz-adv-x="1000" />

<glyph glyph-name="printer" unicode="&#xe82e;" d="M781 725h-562c-35 0-63-28-63-62v-657h32v-31h93v31h438v-31h94v31h31v657c0 34-28 62-63 62z m-593-62c0 17 14 31 31 31h562c17 0 32-14 32-31v-32h-625v32z m593-157v-62h-313v22c0 22-18 41-40 41h-22v15c0 9 7 16 16 16h140c9 0 16-7 16-16 0-26 21-47 47-47h15c26 0 47 21 47 47v78h125v-93h-31z m-344-93v-22c0-5-4-9-9-9h-75c-5 0-10 4-10 9v75c0 5 5 9 10 9h75c5 0 9-4 9-9v-53z m-249 187h468v-78c0-9-7-16-15-16h-16c-9 0-16 7-16 16 0 26-21 47-46 47h-141c-26 0-47-21-47-47v-16h-22c-22 0-40-18-40-40v-22h-94v62h-31v94z m625-562h-625v62h625v-62z m-188 93h-250v32h250v-32z m31 0v63h-312v-63h-156v219h31v63h93v-22c0-23 19-41 41-41h22v-31h31v31h22c23 0 41 18 41 41v22h313v-63h31v-219h-156z" horiz-adv-x="1000" />

<glyph glyph-name="recycling" unicode="&#xe82f;" d="M469 163h-125v31h125v-31z m187 31h-125v-31h125v31z m0-131v16c0 29-23 52-52 52h-41v-31h-125v31h-50c-24 0-44-19-44-44v-25c0-31 25-56 56-56h200c31 0 56 25 56 56z m-250 37v-31h188v31h10c12 0 21-10 21-21v-16c0-14-11-25-25-25h-200c-14 0-25 11-25 25v24c0 7 6 13 13 13h18z m375 31h0c0-17-13-31-31-31h-31v-156h-438v156h-31c-17 0-31 14-31 31h0c0 17 14 32 31 32h31v125h32v31h62v31h94v63h6c-36 0-65 27-68 62h-55c-39 0-71 32-71 71v80c0 37 31 68 68 68h58c5 35 35 62 72 62h42c37 0 67-27 72-62h38c48 0 88-40 88-88v-37c-1-52-44-94-96-94h-30c-3-35-32-62-68-62h6v-63h94v-31h63v-31h31v-125h31c18 0 31-15 31-32z m-187 469h94v6c0 31-26 57-57 57h-37v-63z m0-94h29c35 0 63 28 65 63h-94v-63z m-188 63h-93v-23c0-22 17-40 39-40h54v63z m0 94h-57c-20 0-36-17-36-37v-26h93v63z m32 0h125v21c0 23-19 41-42 41h-42c-23 0-41-18-41-41v-21z m0-125h125v93h-125v-93z m37-94h50c21 0 38 17 38 37v25h-125v-25c0-20 16-37 37-37z m213-188h-375v-281h375v281z m-563-281h125v31h-125v-31z m63 31h62v32h-62v-32z m562-31h63v31h-63v-31z m94 0h31v31h-31v-31z" horiz-adv-x="1000" />

<glyph glyph-name="report" unicode="&#xe830;" d="M657 725h-438v-750h563v625l-125 125z m81-125h-81v81l81-81z m13-594h-500v688h375v-125h125v-563z m-188 563h-281v62h281v-62z m-94-63h-187v32h187v-32z m32-62h-219v31h219v-31z m93-344h-31v188h31v-188z m63 0h-31v94h31v-94z m62 0h-31v125h31v-125z m-312 250c-69 0-125-56-125-125s56-125 125-125c34 0 66 14 88 37 23 22 37 54 37 88 0 69-56 125-125 125z m0-219c-52 0-94 42-94 94s42 94 94 94v-94l66-66c-17-17-40-28-66-28z" horiz-adv-x="1000" />

<glyph glyph-name="rfid-scanner" unicode="&#xe831;" d="M813 600v31h-500l-157-156v-281c0-17 14-31 32-31h250c17 0 31 14 31 31v125h187v-250c0-35 28-63 63-63h31c34 0 63 28 63 63v469h62v62h-62z m-344-250v31c0 69 56 125 125 125h31v-93h31v-63h-187z m312-281c0-17-14-31-31-31h-31c-17 0-31 14-31 31v469h-94c-86 0-156-70-156-157v-187h-250v268l137 138h456v-531z" horiz-adv-x="1000" />

<glyph glyph-name="rfid-tag" unicode="&#xe832;" d="M797 647v-594h-398l-133 143v389h468v-469h-303l-103 103v303h344v-344h-210l-71 72v210h218v-219h-165l31-31h166v281h-282v-259l85-85h259v406h-406v-345l116-123h353v531h-532v-431l97-97-22-22-106 106v475h594z" horiz-adv-x="1000" />

<glyph glyph-name="robot" unicode="&#xe833;" d="M406 256v-62h-62v62h62z m32 32h-125v-125h125v125h0z m125-32c17 0 31-14 31-31s-14-31-31-31-32 14-32 31 14 31 32 31h0z m0 32h0c-35 0-63-29-63-63s28-62 63-62h0c34 0 62 28 62 62s-28 63-62 63h0z m15-188c9 0 16-7 16-16s-7-15-16-15h-219c-8 0-15 7-15 15s7 16 15 16h219z m0 31h-219c-26 0-46-21-46-47s20-46 46-46h219c26 0 47 20 47 46s-21 47-47 47h0z m110 63v156h-63v188l-31-32v-156h-31v63l-32-32v-31h-281v-156h-31c-17 0-31-14-31-31h0c0-18 14-32 31-32h31v-156h438v156h31c17 0 31 14 31 32h0c0 17-14 31-31 31h-31z m-32-188h-375v313h375v-313z m-47 641c-60 0-109-49-109-109h31c0 43 35 78 78 78s79-35 79-78h31c0 60-49 109-110 109z m0 62v-31c78 0 141-63 141-140h31c0 94-77 171-172 171z m235-171c0 129-105 234-235 234v-31c112 0 204-92 204-203 0-55-22-106-60-144l22-22c45 44 69 103 69 165z" horiz-adv-x="1000" />

<glyph glyph-name="router" unicode="&#xe834;" d="M281 154h-62v32h62v-32z m563 94v-187h-31v-32h-94v32h-437v-32h-94v32h-31v187h125v250h31v-250h375v250h31v-250h125z m-31-31h-625v-125h625v125z m-32-31h-125v-32h125v32z m-156 0h-125v-32h125v32z m78 484c-77 0-140-63-140-140h31c0 60 49 109 109 109s110-49 110-109h31c0 77-63 140-141 140z m0-78c-43 0-78-35-78-78h31c0 26 21 47 47 47s47-21 47-47h31c0 43-35 78-78 78z" horiz-adv-x="1000" />

<glyph glyph-name="safe-money" unicode="&#xe835;" d="M594 475v31h-63v32h-31v-32h-30c-18 0-32-14-32-32v-92c0-18 14-32 32-32h30v-94h-62v-31h62v-31h31v31h31c17 0 32 14 32 32v92c0 18-15 32-32 32h-31v94h63z m-125-93l1 93h30v-93h-31z m94-33l-1-93h-31v93h32z m-47-251l-235 134v368h469v-368l-234-134z m-203 152l203-116 203 116v319h-406v-319z m203-215l-297 165v463h594v-463l-297-165z m-266 183l266-147 265 147v413h-531v-413z m-56 447l-66 67 22 22 66-66-22-23z m709 67l-66-67-22 23 66 66 22-22z m-403 56h31v-94h-31v94z m-372-663l66 66 22-22-66-66-22 22z m754-22l-67 66 23 22 66-66-22-22z m-382-97h31v-94h-31v94z" horiz-adv-x="1000" />

<glyph glyph-name="satelite" unicode="&#xe836;" d="M901 146l-177 177-22 22-22-22-22 22 22 22 22 22-22 22-1 1h0c9 13 13 28 13 44 0 20-8 40-23 55-15 15-35 23-55 23-16 0-31-5-43-13h-1l-1 1-21 22-23-22-22-22-22 22 22 22-22 22-177 177-22 22-22-22-88-89-22-22 22-22 176-177 23-22 22 22 22-22-44-44-23-22 23-22-14-14c-59 20-127 6-174-41l-11-11 110-111-44-44 22-22 44 44 111-111 11 12c32 32 50 75 50 121 0 18-3 36-8 53l13 14 22-23 66 67 23-22-23-22 23-23 176-177 22-21 23 21 88 89 22 22-22 22z m-254 342c9-9 14-20 14-33 0-7-2-14-5-20l-63 63c18 8 40 4 54-10z m-453 144l88 89 44-44-88-89-44 44z m66-66l88 88 45-44-89-88-44 44z m110-111l-44 44 88 89 45-45-89-88z m44-397l-197 198c55 44 136 41 187-10 26-27 41-62 41-100 0-32-11-63-31-88z m89 176l-110 111 154 154 111-110-155-155z m111-21l88 88 44-44-88-89-44 45z m66-67l88 88 45-44-89-88-44 44z m110-111l-44 45 88 88 44-44-88-89z" horiz-adv-x="1000" />

<glyph glyph-name="scale" unicode="&#xe837;" d="M891 303v94h-32v-94c0 35-28 63-62 63v156h-31v125h-125v94l-32-32v-62h-31v62l-31-31v-31h-344v-125h-31v-156c-34 0-63-28-63-63v-31h-31v-313h844v344h-31z m-750 0c0 17 14 31 31 31h31v-93h-62v62z m31-281h-63v31h63v-31z m0 62h-63v32h63v-32z m0 63h-63v31h63v-31z m31 62h31v-62h-31v62z m63-187h-32v31h32v-31z m0 62h-32v32h32v-32z m93 0h-31v32h31v-32z m157-62h-94v31h94v-31z m93-31h-31v31h31v-31z m0 93h-62v94h-94v-62h-31v31h-94v62h281v-125z m125-62h-62v31h62v-31z m0 62h-62v32h62v-32z m0 63h-62v31h62v-31z m0 125h-31v62h-31v-62h-63v-31h-312v62h-31v-62h-32v375h500v-344z m63-125h-31v31h31v-31z m0 62h-31v125h31c17 0 31-14 31-31h-31v-94z m94-156h-32v31h32v-31z m0 63h-32v31h32v-31z m0 93h-32v32h32v-32z m-563 313v-125h125v125h-125z m94-94h-63v63h63v-63z m156 94c-35 0-62-28-62-63s27-62 62-62c17 0 33 7 44 18 12 12 19 27 19 44 0 35-28 63-63 63z m0-94c-17 0-31 14-31 31s14 32 31 32 31-14 31-32-14-31-31-31z m16-62h-219c-26 0-47-21-47-47s21-47 47-47h219c26 0 47 21 47 47s-21 47-47 47z m-203-63h-16c-9 0-16 7-16 16s7 15 16 15h16v-31z m62 0h-31v31h31v-31z m31 0v31h63v-31h-63z m110 0h-16v31h16c8 0 15-6 15-15s-7-16-15-16z" horiz-adv-x="1000" />

<glyph glyph-name="secret" unicode="&#xe838;" d="M781 694h-125c-103 0-187-84-187-188v-44l-29-69-18-43h47v-94c0-69 56-125 125-125h40l-156-156h335v719h-32z m-125-31h125v-157h-281c0 87 70 157 156 157z m9-500h-71c-52 0-94 41-94 93v63h47c9 0 16 7 16 15s-7 16-16 16h-47v31h-31l20 48c11-10 26-16 42-16 35 0 63 28 63 62h187v-197l-116-115z m-306 218c-26 0-46-21-46-47v-78h-63c-17 0-33-7-44-18-12-12-18-27-18-44h0v-219h218v359c0 26-21 47-47 47z m-15-47c0 9 7 16 15 16s16-7 16-16v-265h-156v34c5-2 10-3 15-3 13 0 23 5 32 12 8-7 19-12 31-12 26 0 47 21 47 47v78h0v109z m-31-109v-78c0-9-7-16-16-16s-16 7-16 16v78h32z m-94-31c0 8 3 16 9 22 5 5 13 9 22 9h0v-78c0-9-7-16-16-16s-15 7-15 16v47z" horiz-adv-x="1000" />

<glyph glyph-name="server" unicode="&#xe839;" d="M625 21h-250v60h250v-60z m0 251h-250v-63h250v63z m0 187h-250v-62h250v62z m125 217v-717h-500v717c0 36 29 65 65 65h370c36 0 65-29 65-65z m-31-529h-438v-156h438v156z m0 187h-438v-156h438v156z m0 188h-438v-156h438v156z m0 154c0 18-15 33-34 33h-370c-19 0-34-15-34-33v-123h438v123z m-94-29h-250v-63h250v63z m-281-31h-31v-32h31v32z m0 62h-31v-31h31v31z m0-250h-31v-31h31v31z m0 63h-31v-32h31v32z m0-250h-31v-32h31v32z m0 62h-31v-31h31v31z m0-250h-31v-31h31v31z m0 63h-31v-32h31v32z" horiz-adv-x="1000" />

<glyph glyph-name="smartphone" unicode="&#xe83a;" d="M625 631h-219c-34 0-62-28-62-62v-438c0-34 28-62 62-62h32v-47c0-9-7-16-16-16h-125c-26 0-47-21-47-47v-47h31v47c0 9 7 16 16 16h125c26 0 47 21 47 47v47h156c34 0 63 28 63 62v438c0 34-29 62-63 62z m31-500c0-17-14-31-31-31h-219c-17 0-31 14-31 31v9l281 253v-262z m0 429l-80-72 21-23 59 53v-83l-281-253v83l166 149-21 24-145-131v262c0 17 14 31 31 31h32c0-17 14-31 31-31h94c17 0 31 14 31 31h31c17 0 31-14 31-31v-9z" horiz-adv-x="1000" />

<glyph glyph-name="talk" unicode="&#xe83b;" d="M344 256h-31v32h31v-32z m145-93h-51v-63c0-69-56-125-125-125h-188v469h156c87 0 157-70 157-156v-27l27-53 24-45z m-51 31l-32 59v35c0 69-56 125-125 125h-125v-407h157c51 0 93 42 93 94v31h-93v32h93v31h32z m437 250v-469h-187c-70 0-125 56-125 125v86l-28 56-23 46h51c0 86 70 156 156 156h156z m-281-328v-16c0-52 42-94 94-94h156v407h-125c-69 0-125-56-125-125v-32h-31l31-62v-78z m125 172h-63v-32h63v32z m-78 312h-313v-31h313v31z m0 63h-438v-32h438v32z m0-125h-219v-32h219v32z m-360-407h32v63h-32v-63z m438-2v34h-125v-63h95c17 0 30 13 30 29z" horiz-adv-x="1000" />

<glyph glyph-name="temperature" unicode="&#xe83c;" d="M656 163c0-69-56-125-125-125s-125 56-125 125c0 58 40 107 94 121v98h63v-98c54-14 93-63 93-121z m63 0c0-104-84-188-188-188-13 0-26 2-40 4-73 16-132 76-144 151-14 78 23 156 91 195v307c0 51 42 93 93 93s94-42 94-93v-307c58-33 94-95 94-162z m-31 0c0 64-39 119-94 143v169h-63v32h63v31h-63v31h63v31h-63v32h63c0 34-28 62-63 62s-62-28-62-62v-326c-63-28-105-95-91-171 10-62 59-112 120-125 11-2 22-3 33-3 87 0 157 70 157 156z" horiz-adv-x="1000" />

<glyph glyph-name="timer" unicode="&#xe83d;" d="M724 477l48 47-67 66-47-47c-28 21-61 37-95 46v42h31v62h-219v-62h31v-42c-126-34-218-149-218-286 0-164 133-297 296-297s297 133 297 297c0 65-21 125-57 174z m-286 123v31h93v-31h-93z m46-562c-146 0-265 119-265 265s119 266 265 266 266-119 266-266-119-265-266-265z m47 265c0-26-21-47-47-47s-46 21-46 47c0 7 1 14 4 20l-68 69 22 22 68-69c7 3 13 5 20 5 26 0 47-21 47-47z m-47 203c-111 0-203-91-203-203s92-203 203-203 204 91 204 203-92 203-204 203z m0-375c-95 0-171 77-171 172s76 172 171 172 172-77 172-172-77-172-172-172z" horiz-adv-x="1000" />

<glyph glyph-name="user_ai" unicode="&#xe83e;" d="M594 413c17 0 33 6 44 18 11 11 18 27 18 44 0 34-28 63-62 63s-63-29-63-63 28-62 63-62z m0 93c17 0 31-14 31-31s-14-31-31-31-31 14-31 31 14 31 31 31z m250-406c0 52-42 94-94 94h-125v31h94v156h31c17 0 31 14 31 32s-14 31-31 31h-31v156h-63v188l-31-32v-156h-31v63l-31-32v-31h-32v63h-132c-65 0-118-53-118-119v-72c-18-6-31-24-31-44v-62c0-21 13-38 31-44v-41c0-35 15-66 39-87h-70c-52 0-94-42-94-94v-219h282c34 0 62 28 62 63v31h344v125z m-156 469v-313h-157v32h78c26 0 47 20 47 46s-21 47-47 47h-78v188h157z m-219-625c0-17-14-32-31-32h-94v126h94c5 0 10-2 15-5 10-5 16-15 16-27v-62z m-156 375v225c0 22 7 41 20 56 15 19 40 31 66 31h101v-281h-94v-31h94v-125h-101c-26 0-51 12-66 31-13 15-20 34-20 56v38z m218 31h78c9 0 16-7 16-16s-7-15-16-15h-78v31z m-93-242v-39h-32v94h32v-55z m156 55c0-35-28-63-63-63h-62v63h62v62h63v-62z m-188 281h-31v31h31v-31z" horiz-adv-x="1000" />

<glyph glyph-name="user" unicode="&#xe83f;" d="M375 475h31v-31h-31v31z m188-156h-125v-31h125v31z m-63 62v94h-31v-125h62v31h-31z m94 63h31v31h-31v-31z m-31-156h31v31h-31v-31z m0 31h31v31h-31v-31z m281-219v-125h-688v125c0 52 42 94 94 94h74c-26 23-43 56-43 94v34c-18 6-31 23-31 44v62c0 20 13 38 31 44v66c0 69 56 125 125 125h188c69 0 125-56 125-125v-66c18-6 31-24 31-44v-62c0-21-13-38-31-44v-34c0-38-17-71-43-94h74c52 0 94-42 94-94z m-438 94h188c52 0 94 42 94 94v250c0 51-42 93-94 93h-188c-52 0-93-42-93-93v-250c0-52 41-94 93-94z m188-31h-188c0-35 28-63 63-63h62c35 0 63 28 63 63z" horiz-adv-x="1000" />

<glyph glyph-name="watching" unicode="&#xe840;" d="M609 407h-218c-61 0-110-49-110-109s49-110 110-110h218c61 0 110 50 110 110s-49 109-110 109z m-147-187h-71c-43 0-78 35-78 78s35 78 78 78h71c-15-17-24-39-24-63v-31c0-24 9-46 24-62z m132 62c0-34-28-62-63-62s-62 28-62 62v31c0 35 28 63 62 63s63-28 63-63v-31z m15-62h-8c15 16 24 38 24 62v31c0 24-9 46-24 63h8c44 0 79-35 79-78s-35-78-79-78z m32-157h-282c-26 0-46 21-46 47s20 47 46 47h282c26 0 47-21 47-47s-21-47-47-47z m-282 63c-8 0-15-7-15-16s7-15 15-15h282c8 0 15 7 15 15s-7 16-15 16h-282z m-140 437h-31v32h31v-32z m562 0h-31v32h31v-32z m0-218v125h-250v109c19 14 32 37 32 63 0 43-35 78-79 78s-78-35-78-78 35-79 78-79c6 0 11 1 16 2v-95h-125v125h-95c-7 35-39 62-77 62-43 0-78-35-78-78s35-78 78-78c38 0 70 27 77 62h64v-93h-125v-125h-31v-157h31v-187h562v187h32v157h-32z m-578 187c-26 0-47 21-47 47s21 47 47 47 47-21 47-47-21-47-47-47z m281 63c-26 0-46 21-46 47s20 46 46 46 47-20 47-46-21-47-47-47z m266-563h-500v406h500v-406z m-250 594h-31v31h31v-31z m266 31c-38 0-70-27-77-62h-64v-125h31v93h33c7-35 39-62 77-62 43 0 78 35 78 78s-35 78-78 78z m0-125c-26 0-47 21-47 47s21 47 47 47 47-21 47-47-21-47-47-47z m-235-281h0c-17 0-31 14-31 31v31c0 18 14 32 31 32h0c17 0 32-14 32-32v-31c0-17-15-31-32-31z" horiz-adv-x="1000" />

<glyph glyph-name="truck" unicode="&#xe841;" d="M875 475h-218c-1 35-30 63-65 63h-529v-438h94c0-34 27-62 62-62s63 28 63 62h62c0-34 28-62 63-62s62 28 62 62h250c0-34 28-62 63-62s62 28 62 62h94v313c0 34-28 62-63 62z m-656-406c-17 0-31 14-31 31s14 31 31 31 31-13 31-31-14-31-31-31z m188 0c-18 0-32 14-32 31s14 31 32 31 31-13 31-31-14-31-31-31z m218 62h-165c-10 19-30 32-53 32s-44-13-54-32h-80c-11 19-31 32-54 32s-43-13-54-32h-71v63h531v-63z m0 94h-531v281h498c18 0 33-14 33-33v-248z m157-156c-18 0-32 14-32 31s14 31 32 31 31-13 31-31-14-31-31-31z m125 219h-125v93h125v-93z m-157 125v-157h157v-125h-72c-10 19-30 32-53 32s-44-13-54-32h-71v313h218c18 0 32-14 32-31h-157z" horiz-adv-x="1000" />

<glyph glyph-name="waves" unicode="&#xe842;" d="M844 350h-94v157c0 34-28 62-62 62s-63-28-63-62v-157h-62v282c0 34-29 62-63 62s-62-28-62-62v-282h-63v157c0 34-28 62-62 62s-63-28-63-62v-157h-156v-31h62v-128c0-33 27-59 60-59h5c33 0 60 26 60 59v128h62v-250c0-34 29-62 63-62s62 28 62 62v250h63v-250c0-34 28-62 62-62s63 28 63 62v250h62v-128c0-33 27-59 60-59h5c33 0 60 26 60 59v128h63v31h-63z m-594-159c0-15-13-28-28-28h-6c-15 0-28 13-28 28v128h62v-128z m31 159v157c0 17 14 31 32 31s31-14 31-31v-157h-63z m157-281c0-17-15-31-32-31s-31 14-31 31v250h63v-250z m31 281v282c0 17 14 31 31 31s31-14 31-31v-282h-62z m156-281c0-17-14-31-31-31s-31 14-31 31v250h62v-250z m31 281v157c0 17 14 31 32 31s31-14 31-31v-157h-63z m157-159c0-15-13-28-29-28h-5c-16 0-29 13-29 28v128h63v-128z" horiz-adv-x="1000" />

<glyph glyph-name="workplace" unicode="&#xe843;" d="M217 194c1-5 2-11 2-16v16h-2z m0 0c1-5 2-11 2-16v16h-2z m0-31h2v15c0-5-1-10-2-15z m0 31c1-5 2-11 2-16v16h-2z m0-31h2v15c0-5-1-10-2-15z m0 31c1-5 2-11 2-16v16h-2z m0-31h2v15c0-5-1-10-2-15z m0 31c1-5 2-11 2-16v16h-2z m0-31h2v15c0-5-1-10-2-15z m0 31c1-5 2-11 2-16v16h-2z m0-31h2v15c0-5-1-10-2-15z m0 0h2v15c0-5-1-10-2-15z m0 31c1-5 2-11 2-16v16h-2z m0-31h2v15c0-5-1-10-2-15z m0 31c1-5 2-11 2-16v16h-2z m0-31h2v15c0-5-1-10-2-15z m0 31c1-5 2-11 2-16v16h-2z m0-31h2v15c0-5-1-10-2-15z m0 31c1-5 2-11 2-16v16h-2z m0 0c1-5 2-11 2-16v16h-2z m0 0c1-5 2-11 2-16v16h-2z m0-31h2v15c0-5-1-10-2-15z m252 31h-94v156h94v-156z m-63 31h32v94h-32v-94z m188-31h-94v156h94v-156z m-63 31h32v94h-32v-94z m219-31h-125v156h125v-156z m-94 31h63v94h-63v-94z m-187 156h-94v157h94v-157z m-63 32h32v93h-32v-93z m219-32h-125v157h125v-157z m-94 32h63v93h-63v-93z m219-32h-94v157h94v-157z m-62 32h31v93h-31v-93z m171-188c-17 0-34-6-46-16v375c0 26-21 47-47 47h-422v63h-31v-63h-32v94h-31v-94h-16c-26 0-46-21-46-47v-343c-13 9-30 15-47 15-43 0-78-35-78-78 0-38 26-69 62-76v-127h31v127c12 2 22 7 32 14v-110h625v78c9-6 19-11 31-14v-126h31v126c36 8 63 39 63 77 0 43-35 78-79 78z m-640 281h94v-93h-94v93z m0-187h94v-94h-94v94z m94-281h-94v93h94v-93z m156 0h-63v93h63v-93z m156 0h-62v93h62v-93z m156 0h-62v93h62v-93z m0 125h-93v-125h-32v125h-125v-125h-31v125h-125v-125h-31v125h-127c1 5 2 10 2 15s-1 11-2 16h127v156h-125v31h125v157h-125v46c0 9 7 16 15 16h532c8 0 15-7 15-16v-421z" horiz-adv-x="1000" />

<glyph glyph-name="world_black" unicode="&#xe844;" d="M833 177c5 10 10 20 14 30 2 6 4 11 6 16 2 8 5 16 7 25 2 5 3 11 5 16 2 9 3 19 5 28 1 5 2 9 2 14 2 15 3 29 3 44 0 12-1 25-2 37 0 3-1 6-1 9-1 9-3 19-4 28-1 3-2 5-2 8-3 9-5 19-8 28 0 2-1 3-1 5-3 8-5 15-8 22 0 1-1 2-1 3-11 28-26 54-44 78h1c-2 2-3 4-4 6l-3 2c-68 90-176 149-298 149-55 0-107-12-154-34h0c-5-2-9-4-14-6-5-3-10-6-15-8-7-4-14-8-20-12-4-3-8-6-12-9-7-4-13-9-20-14-3-3-6-6-10-9-6-5-12-11-19-17-2-2-4-5-7-7-20-21-37-44-52-70-3-4-5-8-8-12-3-6-6-12-9-18-2-6-5-12-8-19-2-5-4-11-6-16-3-8-5-15-7-23-1-2-2-5-3-8h1c-3-10-5-20-7-31h0l-2-14c-1-4-1-9-2-13l0-4h0c-1-10-2-20-2-31 0-130 67-245 168-312 1-1 1-1 2-2 4-2 6-4 9-6 2 0 3-1 4-1 56-34 122-54 192-54 142 0 265 79 329 195 0 0 0 1 1 1 1 2 2 4 3 7z m-677 173c0 10 1 20 2 30l63-63c-1-4-2-8-2-11v-68c0-9 3-16 9-22l44-44c6-6 9-14 9-23v-64c-76 63-125 158-125 265z m344-344c-55 0-106 13-152 36l112 111c6 6 9 14 9 23v36c0 9-4 16-9 22l-107 107c-6 6-14 9-22 9h-68c-4 0-7-1-11-2l-64 65h-26c2 10 5 20 7 31h34c17 0 31 14 31 31v3c0 8 4 16 9 22l60 60c6 6 14 9 22 9h37c8 0 16 3 22 9l22 22v31l-36 37c40 16 84 26 130 26 56 0 109-14 156-38v-25h41c7-5 15-10 22-16v-15h-94v-31c0-17 14-31 31-31h32l31 31h46c16-19 30-41 41-63h-56v32h-31l-31-32h-32l-53-53c-6-6-9-14-9-22v-68c0-9 3-16 9-22l13-13c6-6 13-9 22-9h81c17 0 31-14 31-31v-81c0-9 3-17 9-23l21-20c2-2 4-3 6-4-61-93-167-154-286-154z" horiz-adv-x="1000" />

<glyph glyph-name="world_white" unicode="&#xe845;" d="M833 177c5 10 10 20 14 30 2 6 4 11 6 16 2 8 5 16 7 25 2 5 3 11 5 16 2 9 3 19 5 28 1 5 2 9 2 14 2 15 3 29 3 44 0 12-1 25-2 37 0 3-1 6-1 9-1 9-3 19-4 28-1 3-2 5-2 8-3 9-5 19-8 28 0 2-1 3-1 5-3 8-5 15-8 22 0 1-1 2-1 3-11 28-26 54-44 78h1c-2 2-3 4-4 6-11 14-23 28-36 40 0 0 0 0 0 1-17 17-37 33-57 47h-1c-59 39-130 62-207 62-55 0-107-12-154-33h0c-5-2-9-4-14-7-5-2-10-5-15-8-7-3-14-8-20-12-4-2-8-5-12-8-7-5-13-9-20-14-3-3-6-6-10-9-6-5-12-11-19-17-2-3-4-5-7-8-20-20-37-44-52-69-3-4-5-8-8-12-3-6-6-12-9-19-2-5-5-12-8-18-2-6-4-11-6-17-3-7-5-15-7-22-1-3-2-5-3-8h1c-8-30-13-61-13-94 0-3 1-7 1-11 0-1 0-2 0-3 0-5 1-11 1-17h0c10-112 68-210 155-273v0c2-2 5-3 8-5 1-1 3-2 4-3 9-6 18-12 27-17 2-1 3-1 4-2 7-4 14-7 21-11h0c48-21 99-33 154-33 142 0 265 79 329 194 0 1 0 1 1 2 1 2 2 4 3 6z m9 133c-1-3-2-7-2-11-2-9-3-19-5-28-1-4-2-8-3-12-3-9-6-19-9-28-2-3-3-6-4-9-5-12-10-24-17-36l-20 21v81c0 34-29 62-63 62h-81l-13 13v68l44 44h32l9 9 22 22h18v-31h32l38 1c2-6 4-12 7-18 1-3 1-5 2-8 2-7 4-15 6-23 1-4 2-7 2-10 2-8 3-16 4-24 0-3 1-6 1-9 1-11 2-23 2-34 0-14-1-27-3-40z m-137 316c8-7 17-13 25-21 2-2 4-3 6-5h-30l-9-9-22-22h-50v62h73c2-1 4-3 7-5z m-523-147c2 5 4 10 7 16 2 4 4 8 6 12 3 6 6 11 9 17 2 3 4 6 6 9 4 6 8 12 12 18 1 2 4 5 6 8 4 5 9 11 13 16 2 3 5 5 7 8 5 5 10 10 15 15 3 2 5 5 9 8 4 4 9 8 14 12 4 4 8 7 12 10 5 3 9 6 13 9 6 4 12 7 18 11 3 1 6 3 9 5 0 0 1 0 2 1l35-36v-5l-12-13h-37c-17 0-33-7-44-18l-60-60c-12-12-18-28-18-44v-3h-23s1 3 1 4z m131-417v56c0 17-7 33-19 45l-44 44v62l-9 9-63 63-9 9h-11c1 11 2 21 4 31h13l85-84 9-9h62l107-107v-37l-98-98c-10 5-18 11-27 16z m-155 255l61-61v-49c0-9 4-17 9-23l45-44c5-6 9-14 9-22v-34c-69 57-115 139-124 233z m342-311c-46 0-90 10-130 26l90 90c6 6 9 14 9 22v37c0 8-4 16-9 22l-107 107c-6 6-14 9-22 9h-50l-93 94h-26c2 10 5 20 7 31h34c17 0 31 14 31 31v3c0 8 4 16 9 22l60 60c6 6 14 9 22 9h37c8 0 16 3 22 9l22 22v31l-36 37c40 16 84 26 130 26 51 0 99-11 143-31h-49v-94c0-17 14-31 31-31h63l31 31h46c16-19 30-41 41-63h-25v32h-62l-31-32h-32l-53-53c-6-6-9-14-9-22v-68c0-9 3-16 9-22l13-13c6-6 13-9 22-9h81c17 0 31-14 31-31v-81c0-9 3-17 9-23l21-20c2-2 4-3 6-4-62-93-167-154-286-154z" horiz-adv-x="1000" />

<glyph glyph-name="wrench" unicode="&#xe846;" d="M850 600l-108-107c-4-5-9-9-15-11-19-10-44-6-61 11-17 16-20 41-10 61 2 5 6 10 10 15l108 107c-60 29-134 19-184-31s-61-124-32-184l-3-3-126 62h-2c-35 19-81 14-111-16l-154-155c-37-36-37-96 0-132l76-77-41-40c-21-22-21-56 0-77 21-21 55-21 76 0l46 47c22-7 46-2 63 15 9 9 15 20 17 32 23-11 52-7 71 12 9 9 15 20 17 32 23-12 53-8 72 12 14 13 20 31 18 49 17-1 35 5 48 18 24 24 24 64 0 88l-11 10c11 11 16 26 15 41l5 6c60-29 135-19 184 31 50 50 61 124 32 184z m-318-165l-7-7-21 20 28-13z m-281-390c-9-8-23-8-32 0-9 9-9 24 0 33l41 40 32-32-41-41z m352 217c-12-12-31-13-44-1l-24 24-22 22-32 32-22 23-13 12-22-22 13-13 22-22 32-32 22-22 23-23c12-12 12-32 0-45-12-12-32-12-44 0l-23 24-22 22-32 32-22 22-13 13-22-22 12-13 23-22 31-32 23-22 1-2c12-12 12-32 0-44s-32-12-44 0l-1 2-23 22-32 32-22 22-13 13-22-23 13-12 22-23 34-34c9-9 11-23 5-34-1-3-3-7-6-9-2-3-5-5-9-6-11-6-24-4-34 5l-2 2-32 32-22 23-76 76c-25 24-25 64 0 88l154 155c7 7 15 11 24 14 22 8 47 3 65-14l76-76 22-23 32-32 46-45c12-12 12-32 0-44z m193 176c-39-39-98-49-148-25l-20 10-33-34-16-16-32 33 15 14 18 19 5 5 11 10-10 20c-23 50-13 109 26 149 27 27 65 40 102 38l-70-70c-7-8-13-15-16-24-16-32-10-71 16-97 25-25 64-32 96-17 9 5 17 10 24 17l70 70c3-37-10-74-38-102z" horiz-adv-x="1000" />
</font>
</defs>
</svg>
